Я краснею / Turning Red (2022) (4K, HEVC, HDR / WEB-DL) 2160p
  • HD
+1 1

Я краснею / Turning Red (2022) (4K, HEVC, HDR / WEB-DL) 2160p



Год выпуска: 2022
Жанр: Мультфильм, фэнтези, комедия, приключения, семейный
Выпущено: США, Pixar Animation Studios, Walt Disney Pictures
Продолжительность: 01:39:41
Перевод: Профессиональный многоголосый
Субтитры: Русские, английские
Возраст 6+

Режиссер: Доми Ши

В ролях:
Розали Чян, Сандра О, Ава Морс, Майтреи Рамакришнан, Пак Хе-ин, Джеймс Хонг, Саша Ройз, Джордан Фишер, Финнеас О’Коннелл, Вай Чин Хо

О фильме:
Уверенная в себе 13-летняя Мэй Ли разрывается между тем, чтобы оставаться прилежной и послушной маминой дочкой и справиться с хаосом подросткового возраста. И, казалось бы, перемен в её интересах, отношениях и подростковых изменений в собственном теле и так достаточно, но нет — всякий раз, когда она слишком волнуется (что с подростком случается практически всегда), она моментально превращается в гигантскую красную панду.

Техданные
Качество: WEB-DL (2160p)
Видео: MPEG-H HEVC, 22.9 Мбит/с, 3840x2160, 23.976 кадр/с, 10 бит
Аудио: Русский (AC3, 6 ch, 448 Кбит/с), английский (E-AC3 JOC, 6 ch, 768 Кбит/с )
Релиз
Аудио #1: AC3, 48 kHz, 6 ch, 448 kbps | Jaskier | RUS |
Аудио #2: E-AC3 JOC, 48 kHz, 6 ch, 768 kbps | Оригинал | ENG |
Субтитры: Русские, английские

[spoiler="MediaInfo:"]
Формат                                   : Matroska
Версия формата                           : Version 4
Размер файла                             : 16,8 Гбайт
Продолжительность                        : 1 ч. 39 м.
Общий поток                              : 24,1 Мбит/сек
Название фильма                          : Я краснею (2022) 4k legik69
Дата кодирования                         : UTC 2022-03-13 22:40:47
Программа кодирования                    : mkvmerge v65.0.0 ('Too Much') 64-bit
Библиотека кодирования                   : libebml v1.4.2 + libmatroska v1.6.4
Обложка                                  : Yes
Attachments                              : cover.jpg

Видео
Идентификатор                            : 1
Формат                                   : HEVC
Формат/Информация                        : High Efficiency Video Coding
Профиль формата                          : Main 10@L5@Main
Идентификатор кодека                     : V_MPEGH/ISO/HEVC
Продолжительность                        : 1 ч. 39 м.
Битрейт                                  : 22,9 Мбит/сек
Ширина                                   : 3 840 пикселей
Высота                                   : 2 160 пикселей
Соотношение сторон                       : 16:9
Режим частоты кадров                     : Постоянный
Частота кадров                           : 23,976 (24000/1001) кадра/сек
Цветовое пространство                    : YUV
Субдискретизация насыщенности            : 4:2:0
Битовая глубина                          : 10 бит
Бит/(Пиксели*Кадры)                      : 0.115
Размер потока                            : 15,9 Гбайт (95%)
Библиотека кодирования                   : x265 3.5:[Linux][GCC 9.3.0][64 bit] 10bit
Настройки программы                      : cpuid=1111039 / frame-threads=1 / numa-pools=16 / wpp / no-pmode / no-pme / no-psnr / no-ssim / log-level=2 / input-csp=1 / input-res=3840x2160 / interlace=0 / total-frames=0 / level-idc=50 / high-tier=0 / uhd-bd=0 / ref=3 / no-allow-non-conformance / repeat-headers / annexb / no-aud / no-hrd / info / hash=0 / no-temporal-layers / no-open-gop / min-keyint=48 / keyint=48 / gop-lookahead=0 / bframes=2 / b-adapt=0 / b-pyramid / bframe-bias=0 / rc-lookahead=48 / lookahead-slices=8 / scenecut=0 / hist-scenecut=0 / radl=0 / no-splice / no-intra-refresh / ctu=32 / min-cu-size=8 / no-rect / no-amp / max-tu-size=16 / tu-inter-depth=2 / tu-intra-depth=2 / limit-tu=0 / rdoq-level=1 / dynamic-rd=0.00 / no-ssim-rd / signhide / no-tskip / nr-intra=0 / nr-inter=0 / no-constrained-intra / no-strong-intra-smoothing / max-merge=3 / limit-refs=1 / no-limit-modes / me=1 / subme=2 / merange=44 / temporal-mvp / no-frame-dup / no-hme / weightp / no-weightb / no-analyze-src-pics / deblock=0:0 / no-sao / no-sao-non-deblock / rd=4 / selective-sao=0 / early-skip / rskip / no-fast-intra / no-tskip-fast / no-cu-lossless / b-intra / no-splitrd-skip / rdpenalty=1 / psy-rd=1.60 / psy-rdoq=5.00 / no-rd-refine / no-lossless / cbqpoffs=0 / crqpoffs=0 / rc=abr / bitrate=23000 / qcomp=0.75 / qpstep=4 / stats-write=0 / stats-read=0 / vbv-maxrate=25000 / vbv-bufsize=25000 / vbv-init=0.9 / ipratio=1.40 / pbratio=1.30 / aq-mode=3 / aq-strength=1.00 / no-cutree / zone-count=0 / no-strict-cbr / qg-size=32 / no-rc-grain / qpmax=69 / qpmin=0 / no-const-vbv / sar=1 / overscan=0 / videoformat=5 / range=0 / colorprim=9 / transfer=16 / colormatrix=9 / chromaloc=0 / display-window=0 / cll=0,0 / min-luma=0 / max-luma=1023 / log2-max-poc-lsb=8 / vui-timing-info / vui-hrd-info / slices=1 / no-opt-qp-pps / no-opt-ref-list-length-pps / no-multi-pass-opt-rps / scenecut-bias=0.00 / hist-threshold=0.01 / no-opt-cu-delta-qp / no-aq-motion / no-hdr10 / hdr10-opt / no-dhdr10-opt / no-idr-recovery-sei / analysis-reuse-level=0 / analysis-save-reuse-level=0 / analysis-load-reuse-level=0 / scale-factor=0 / refine-intra=0 / refine-inter=0 / refine-mv=1 / refine-ctu-distortion=0 / no-limit-sao / ctu-info=0 / no-lowpass-dct / refine-analysis-type=0 / copy-pic=1 / max-ausize-factor=1.0 / no-dynamic-refine / no-single-sei / no-hevc-aq / no-svt / no-field / qp-adaptation-range=1.00 / no-scenecut-aware-qpconformance-window-offsets / right=0 / bottom=0
Язык                                     : English
Default                                  : Да
Forced                                   : Да
Цветовой диапазон                        : Limited
Основные цвета                           : BT.2020
Характеристики трансфера                 : PQ
Коэффициенты матрицы                     : BT.2020 non-constant

Аудио #1
Идентификатор                            : 2
Формат                                   : AC-3
Формат/Информация                        : Audio Coding 3
Коммерческое название                    : Dolby Digital
Идентификатор кодека                     : A_AC3
Продолжительность                        : 1 ч. 39 м.
Вид битрейта                             : Постоянный
Битрейт                                  : 448 Кбит/сек
Каналы                                   : 6 каналов
Channel layout                           : L R C LFE Ls Rs
Частота                                  : 48,0 КГц
Частота кадров                           : 31,250 кадров/сек (1536 SPF)
Метод сжатия                             : С потерями
Задержка видео                           : 3 с. 0 мс.
Размер потока                            : 319 Мбайт (2%)
Заголовок                                : Jaskier
Язык                                     : Russian
Service kind                             : Complete Main
Default                                  : Да
Forced                                   : Да

Аудио #2
Идентификатор                            : 3
Формат                                   : E-AC-3 JOC
Формат/Информация                        : Enhanced AC-3 with Joint Object Coding
Коммерческое название                    : Dolby Digital Plus with Dolby Atmos
Идентификатор кодека                     : A_EAC3
Продолжительность                        : 1 ч. 39 м.
Вид битрейта                             : Постоянный
Битрейт                                  : 768 Кбит/сек
Каналы                                   : 6 каналов
Channel layout                           : L R C LFE Ls Rs
Частота                                  : 48,0 КГц
Частота кадров                           : 31,250 кадров/сек (1536 SPF)
Метод сжатия                             : С потерями
Задержка видео                           : 3 с. 3 мс.
Размер потока                            : 548 Мбайт (3%)
Заголовок                                : Оригинал
Язык                                     : English
Service kind                             : Complete Main
Default                                  : Нет
Forced                                   : Нет
Complexity index                         : 16
Number of dynamic objects                : 15
Bed channel count                        : 1 канал
Bed channel configuration                : LFE

Текст #1
Идентификатор                            : 4
Формат                                   : UTF-8
Идентификатор кодека                     : S_TEXT/UTF8
Идентификатор кодека/Информация          : UTF-8 Plain Text
Продолжительность                        : 1 ч. 37 м.
Битрейт                                  : 92 бит/сек
Count of elements                        : 1487
Размер потока                            : 66,2 Кбайт (0%)
Заголовок                                : Русские
Язык                                     : Russian
Default                                  : Да
Forced                                   : Да

Текст #2
Идентификатор                            : 5
Формат                                   : UTF-8
Идентификатор кодека                     : S_TEXT/UTF8
Идентификатор кодека/Информация          : UTF-8 Plain Text
Продолжительность                        : 1 ч. 37 м.
Битрейт                                  : 63 бит/сек
Count of elements                        : 1693
Размер потока                            : 45,4 Кбайт (0%)
Заголовок                                : Английские
Язык                                     : English
Default                                  : Нет
Forced                                   : Нет

Текст #3
Идентификатор                            : 6
Формат                                   : UTF-8
Идентификатор кодека                     : S_TEXT/UTF8
Идентификатор кодека/Информация          : UTF-8 Plain Text
Продолжительность                        : 1 ч. 38 м.
Битрейт                                  : 81 бит/сек
Count of elements                        : 2138
Размер потока                            : 58,4 Кбайт (0%)
Заголовок                                : Английские SDH
Язык                                     : English
Default                                  : Нет
Forced                                   : Нет

Меню
01:38:57.855                             : en:Credits
[/spoiler][spoiler="Скриншоты"][align=center]
Я краснею / Turning Red (2022) (4K, HEVC, HDR / WEB-DL) 2160p
Скачать Я краснею / Turning Red (2022) (4K, HEVC, HDR / WEB-DL) 2160p через торрент


ya-krasneyu.torrent
[42,36 Kb] (cкачиваний: 537)
Размер: 16,78 GB

Информация

Посетители, находящиеся в группе Гости, не могут оставлять комментарии к данной публикации.