Митчеллы против машин / The Mitchells vs. the Machines (2021) (4K, HEVC, SDR / WEB-DL) 2160p
  • HD
+1 1

Митчеллы против машин / The Mitchells vs. the Machines (2021) (4K, HEVC, SDR / WEB-DL) 2160p



Год выпуска: 2021
Жанр: Мультфильм, фантастика, комедия, приключения, семейный, полнометражный
Выпущено: США, Канада, Франция, Columbia Pictures Corporation, Lord Miller, Sony Pictures Animation
Перевод: Дублированный
Субтитры: Русские, английские, украинские
Продолжительность: 01:49:38
Возраст 18+

Режиссер: Майкл Рианда, Джефф Роу

В ролях:
Эбби Джейкобсон, Дэнни МакБрайд, Майя Рудольф, Эрик Андре, Майкл Рианда, Оливия Колман, Фред Армисен, Бек Беннетт, Крисси Тиган, Джон Ледженд

О фильме:
Мультфильм рассказывает о не самой дружной, но все же любящей семье Митчеллов, которые отправляются в поездку и сталкиваются с восстанием машин. Оказывается, что по всему миру все электронные устройства, от мобильных до автомобилей с автопилотом, настроились против людей. Митчеллам приходится отложить все личные проблемы, чтобы спасти человечество.

Техданные
Качество: WEB-DL (2160p)
Видео: MPEG-H HEVC, 20.7 Mбит/с, 3840x2060, 23.976 кадр/с, 10 бит
Аудио: Русский, украинский (E-AC3, 6 ch, 640 Кбит/с), английский (E-AC3+Atmos, 6 ch, 768 Кбит/с)
Релиз
Видео: MPEG-H HEVC Video / 20,7 Mbps / 3840x2060 / 23,976 fps / 1.85:1 / Main 10@L5@High / 4:2:0 / 10 bits / SDR / BT.709
Аудио 1: Russian E-AC3 / 5.1 / 48 kHz / 640 kbps Dub, Пифагор по заказу Netflix
Аудио 2: Ukrainian E-AC3 / 5.1 / 48 kHz / 640 kbps |Дубляж|
Аудио 3: English E-AC3+Atmos / 5.1 / 48 kHz / 768 kbps |original|
Субтитры: русские (forced, 2xfull), украинские (forced, Full), английские (full, SDH)
Реклама: Отсутствует

[spoiler="MediaInfo:"]
General
Unique ID                                : 239177658400333608391127129819413052844 (0xB3EFF101D44AC26E8E95507281357DAC)
Complete name                            : H:\UHD\Митчеллы против машин.2021.WEB-DL.2160p.SDR.mkv
Format                                   : Matroska
Format version                           : Version 4
File size                                : 17.4 GiB
Duration                                 : 1 h 49 min
Overall bit rate                         : 22.7 Mb/s
Encoded date                             : UTC 2021-12-14 18:58:40
Writing application                      : mkvmerge v63.0.0 ('Everything') 64-bit
Writing library                          : libebml v1.4.2 + libmatroska v1.6.4
Attachments                              : poster.jpg

Video
ID                                       : 1
Format                                   : HEVC
Format/Info                              : High Efficiency Video Coding
Format profile                           : Main 10@L5@High
Codec ID                                 : V_MPEGH/ISO/HEVC
Duration                                 : 1 h 49 min
Bit rate                                 : 20.7 Mb/s
Width                                    : 3 840 pixels
Height                                   : 2 060 pixels
Display aspect ratio                     : 1.85:1
Frame rate mode                          : Constant
Frame rate                               : 23.976 (23976/1000) FPS
Color space                              : YUV
Chroma subsampling                       : 4:2:0
Bit depth                                : 10 bits
Bits/(Pixel*Frame)                       : 0.109
Stream size                              : 15.9 GiB (91%)
Default                                  : Yes
Forced                                   : No
Color range                              : Limited
Color primaries                          : BT.709
Transfer characteristics                 : BT.709
Matrix coefficients                      : BT.709

Audio #1
ID                                       : 2
Format                                   : E-AC-3
Format/Info                              : Enhanced AC-3
Commercial name                          : Dolby Digital Plus
Codec ID                                 : A_EAC3
Duration                                 : 1 h 49 min
Bit rate mode                            : Constant
Bit rate                                 : 640 kb/s
Channel(s)                               : 6 channels
Channel layout                           : L R C LFE Ls Rs
Sampling rate                            : 48.0 kHz
Frame rate                               : 31.250 FPS (1536 SPF)
Compression mode                         : Lossy
Stream size                              : 502 MiB (3%)
Title                                    : Dub, Пифагор
Language                                 : Russian
Service kind                             : Complete Main
Default                                  : Yes
Forced                                   : No

Audio #2
ID                                       : 3
Format                                   : E-AC-3
Format/Info                              : Enhanced AC-3
Commercial name                          : Dolby Digital Plus
Codec ID                                 : A_EAC3
Duration                                 : 1 h 49 min
Bit rate mode                            : Constant
Bit rate                                 : 640 kb/s
Channel(s)                               : 6 channels
Channel layout                           : L R C LFE Ls Rs
Sampling rate                            : 48.0 kHz
Frame rate                               : 31.250 FPS (1536 SPF)
Compression mode                         : Lossy
Stream size                              : 502 MiB (3%)
Title                                    : Дубляж
Language                                 : Ukrainian
Service kind                             : Complete Main
Default                                  : No
Forced                                   : No

Audio #3
ID                                       : 4
Format                                   : E-AC-3 JOC
Format/Info                              : Enhanced AC-3 with Joint Object Coding
Commercial name                          : Dolby Digital Plus with Dolby Atmos
Codec ID                                 : A_EAC3
Duration                                 : 1 h 49 min
Bit rate mode                            : Constant
Bit rate                                 : 768 kb/s
Channel(s)                               : 6 channels
Channel layout                           : L R C LFE Ls Rs
Sampling rate                            : 48.0 kHz
Frame rate                               : 31.250 FPS (1536 SPF)
Compression mode                         : Lossy
Stream size                              : 602 MiB (3%)
Language                                 : English
Service kind                             : Complete Main
Default                                  : No
Forced                                   : No
Complexity index                         : 16
Number of dynamic objects                : 15
Bed channel count                        : 1 channel
Bed channel configuration                : LFE

Text #1
ID                                       : 5
Format                                   : UTF-8
Codec ID                                 : S_TEXT/UTF8
Codec ID/Info                            : UTF-8 Plain Text
Duration                                 : 1 h 48 min
Bit rate                                 : 5 b/s
Count of elements                        : 129
Stream size                              : 4.18 KiB (0%)
Title                                    : forced
Language                                 : Russian
Default                                  : Yes
Forced                                   : No

Text #2
ID                                       : 6
Format                                   : UTF-8
Codec ID                                 : S_TEXT/UTF8
Codec ID/Info                            : UTF-8 Plain Text
Duration                                 : 1 h 48 min
Bit rate                                 : 98 b/s
Count of elements                        : 1558
Stream size                              : 78.8 KiB (0%)
Title                                    : full #1
Language                                 : Russian
Default                                  : No
Forced                                   : No

Text #3
ID                                       : 7
Format                                   : UTF-8
Codec ID                                 : S_TEXT/UTF8
Codec ID/Info                            : UTF-8 Plain Text
Duration                                 : 1 h 48 min
Bit rate                                 : 104 b/s
Count of elements                        : 1596
Stream size                              : 82.9 KiB (0%)
Title                                    : full #2
Language                                 : Russian
Default                                  : No
Forced                                   : No

Text #4
ID                                       : 8
Format                                   : UTF-8
Codec ID                                 : S_TEXT/UTF8
Codec ID/Info                            : UTF-8 Plain Text
Duration                                 : 1 h 48 min
Bit rate                                 : 6 b/s
Count of elements                        : 138
Stream size                              : 4.95 KiB (0%)
Title                                    : forced
Language                                 : Ukrainian
Default                                  : No
Forced                                   : No

Text #5
ID                                       : 9
Format                                   : UTF-8
Codec ID                                 : S_TEXT/UTF8
Codec ID/Info                            : UTF-8 Plain Text
Duration                                 : 1 h 48 min
Bit rate                                 : 99 b/s
Count of elements                        : 1567
Stream size                              : 79.2 KiB (0%)
Title                                    : full
Language                                 : Ukrainian
Default                                  : No
Forced                                   : No

Text #6
ID                                       : 10
Format                                   : UTF-8
Codec ID                                 : S_TEXT/UTF8
Codec ID/Info                            : UTF-8 Plain Text
Duration                                 : 1 h 48 min
Bit rate                                 : 63 b/s
Count of elements                        : 1479
Stream size                              : 50.3 KiB (0%)
Title                                    : full
Language                                 : English
Default                                  : No
Forced                                   : No

Text #7
ID                                       : 11
Format                                   : UTF-8
Codec ID                                 : S_TEXT/UTF8
Codec ID/Info                            : UTF-8 Plain Text
Duration                                 : 1 h 49 min
Bit rate                                 : 88 b/s
Count of elements                        : 2179
Stream size                              : 70.5 KiB (0%)
Title                                    : SDH
Language                                 : English
Default                                  : No
Forced                                   : No

Menu
00:00:00.000                             : en:Chapter 01
00:06:15.041                             : en:Chapter 02
00:12:08.978                             : en:Chapter 03
00:19:26.207                             : en:Chapter 04
00:24:58.123                             : en:Chapter 05
00:31:34.352                             : en:Chapter 06
00:36:29.272                             : en:Chapter 07
00:46:33.084                             : en:Chapter 08
00:52:52.547                             : en:Chapter 09
00:59:48.004                             : en:Chapter 10
01:06:12.972                             : en:Chapter 11
01:13:19.941                             : en:Chapter 12
01:19:03.159                             : en:Chapter 13
01:24:47.545                             : en:Chapter 14
01:32:32.469                             : en:Chapter 15
01:35:25.892                             : en:Chapter 16


Митчеллы против машин / The Mitchells vs. the Machines (2021) (4K, HEVC, SDR / WEB-DL) 2160p

Скачать Митчеллы против машин / The Mitchells vs. the Machines (2021) (4K, HEVC, SDR / WEB-DL) 2160p через торрент


the-mitchells-vs_-the-machines.torrent
[44,03 Kb] (cкачиваний: 277)
Размер: 17,43 GB

Информация

Посетители, находящиеся в группе Гости, не могут оставлять комментарии к данной публикации.